Welcome to FzMovies

The Best destination for Mobile/Tablet Movies


Follow us on social media for latest updates
Telegram - @FzGroup | Instagram - @FzMovie | Twitter - @FzGroup


MobileTVshows - TV shows / cartoons for mobiles in avi and mp4....http://www.mobiletvshows.net


Mediainfo Azhar

Azhar (in Bollywood Movies)
File: Azhar_BluRay_high.mp4
File Size: 301 MB


General

Complete name : Azhar_BluRay_high.mp4
Format : MPEG-4
Format profile : Base Media
Codec ID : isom (isom/iso2/avc1/mp41)
File size : 301 MiB
Duration : 2 h 10 min
Overall bit rate : 324 kb/s
Writing application : Lavf57.20.100

Video

ID : 1
Format : AVC
Format/Info : Advanced Video Codec
Format profile : [email protected]
Format settings : CABAC / 5 Ref Frames
Format settings, CABAC : Yes
Format settings, ReFrames : 5 frames
Codec ID : avc1
Codec ID/Info : Advanced Video Coding
Duration : 2 h 10 min
Bit rate : 270 kb/s
Width : 640 pixels
Height : 272 pixels
Display aspect ratio : 2.35:1
Frame rate mode : Constant
Frame rate : 24.000 FPS
Color space : YUV
Chroma subsampling : 4:2:0
Bit depth : 8 bits
Scan type : Progressive
Bits/(Pixel*Frame) : 0.065
Stream size : 251 MiB (83%)
Writing library : x264 core 148 r2 7599210
Encoding settings : cabac=1 / ref=5 / deblock=1:-1:-1 / analyse=0x3:0x113 / me=umh / subme=8 / psy=1 / psy_rd=1.00:0.15 / mixed_ref=1 / me_range=16 / chroma_me=1 / trellis=1 / 8x8dct=1 / cqm=0 / deadzone=21,11 / fast_pskip=1 / chroma_qp_offset=-3 / threads=8 / lookahead_threads=1 / sliced_threads=0 / nr=0 / decimate=1 / interlaced=0 / bluray_compat=0 / constrained_intra=0 / bframes=3 / b_pyramid=2 / b_adapt=2 / b_bias=0 / direct=3 / weightb=1 / open_gop=0 / weightp=2 / keyint=250 / keyint_min=24 / scenecut=40 / intra_refresh=0 / rc_lookahead=50 / rc=2pass / mbtree=1 / bitrate=270 / ratetol=1.0 / qcomp=0.60 / qpmin=0 / qpmax=69 / qpstep=4 / cplxblur=20.0 / qblur=0.5 / ip_ratio=1.40 / aq=1:1.00
Language : English
Menus : 3
Codec configuration box : avcC

Audio

ID : 2
Format : AAC LC SBR
Format/Info : Advanced Audio Codec Low Complexity with Spectral Band Replication
Commercial name : HE-AAC
Format settings : NBC
Codec ID : mp4a-40-5
Duration : 2 h 10 min
Bit rate mode : Constant
Bit rate : 48.0 kb/s
Channel(s) : 1 channel
Channel layout : C
Sampling rate : 44.1 kHz
Frame rate : 21.533 FPS (2048 SPF)
Compression mode : Lossy
Stream size : 44.7 MiB (15%)
Language : Hindi
Default : Yes
Alternate group : 1
Menus : 3

Menu #1

ID : 3
Codec ID : text
Duration : 2 h 10 min
Language : English
Bit rate mode : CBR
Menu For : 1,2
00:00:00.000 : 00:00:00.000
00:02:16.417 : 00:03:34.167
00:13:17.958 : 00:14:35.708
00:25:15.625 : 00:26:33.375
00:31:57.542 : 00:33:15.292
00:35:22.083 : 00:36:39.833
00:38:26.792 : 00:39:44.542
00:47:48.458 : 00:49:06.208
00:51:23.042 : 00:52:40.792
01:00:06.458 : 01:01:24.208
01:03:42.250 : 01:05:00.000
01:09:45.333 : 01:11:03.083
01:18:59.500 : 01:20:17.250
01:20:14.833 : 01:21:32.583
01:22:32.750 : 01:23:50.500
01:26:36.250 : 01:27:54.000
01:33:56.583 : 01:35:14.333
01:36:07.583 : 01:37:25.333
01:41:03.958 : 01:42:21.708
01:43:45.250 : 01:45:03.000
01:45:13.250 : 01:46:31.000
01:45:21.333 : 01:46:39.083
01:52:49.250 : 01:54:07.000
01:58:39.667 : 01:59:57.417
02:06:17.250 : 02:07:35.000

Menu #2

00:00:00.000 : 00:00:00.000
00:02:16.417 : 00:03:34.167
00:13:17.958 : 00:14:35.708
00:25:15.625 : 00:26:33.375
00:31:57.542 : 00:33:15.292
00:35:22.083 : 00:36:39.833
00:38:26.792 : 00:39:44.542
00:47:48.458 : 00:49:06.208
00:51:23.042 : 00:52:40.792
01:00:06.458 : 01:01:24.208
01:03:42.250 : 01:05:00.000
01:09:45.333 : 01:11:03.083
01:18:59.500 : 01:20:17.250
01:20:14.833 : 01:21:32.583
01:22:32.750 : 01:23:50.500
01:26:36.250 : 01:27:54.000
01:33:56.583 : 01:35:14.333
01:36:07.583 : 01:37:25.333
01:41:03.958 : 01:42:21.708
01:43:45.250 : 01:45:03.000
01:45:13.250 : 01:46:31.000
01:45:21.333 : 01:46:39.083
01:52:49.250 : 01:54:07.000
01:58:39.667 : 01:59:57.417
02:06:17.250 : 02:07:35.000

Download Azhar ()

Azhar (in Bollywood Movies)
File: Azhar_BluRay_high.mp4
File Size: 301 MB
Loading...