Welcome to FzMovies

The Best destination for Mobile/Tablet Movies


Like us on Facebook get latest updates

MobileTVshows - TV shows / cartoons for mobiles in avi and mp4....http://www.mobiletvshows.net





Mediainfo Welcome Back

Welcome Back (in Bollywood Movies)
File: Welcome_Back_DVDRip_high.mp4
File Size: 333 MB


General

Complete name : Welcome_Back_(2015)_DVDRip_high_(fzmovies.net).mp4
Format : MPEG-4
Format profile : Base Media
Codec ID : isom (isom/iso2/avc1/mp41)
File size : 333 MiB
Duration : 2 h 23 min
Overall bit rate : 325 kb/s
Writing application : Lavf57.19.100

Video

ID : 1
Format : AVC
Format/Info : Advanced Video Codec
Format profile : [email protected]
Format settings : CABAC / 5 Ref Frames
Format settings, CABAC : Yes
Format settings, RefFrames : 5 frames
Codec ID : avc1
Codec ID/Info : Advanced Video Coding
Duration : 2 h 23 min
Bit rate : 270 kb/s
Width : 640 pixels
Height : 262 pixels
Display aspect ratio : 2.40:1
Original display aspect ratio : 2.40:1
Frame rate mode : Constant
Frame rate : 24.975 (24975/1000) FPS
Color space : YUV
Chroma subsampling : 4:2:0
Bit depth : 8 bits
Scan type : Progressive
Bits/(Pixel*Frame) : 0.064
Stream size : 276 MiB (83%)
Title : Welcome Back 2015 DVDRip x264 AAC [4father]
Writing library : x264 core 142 r2 ac76440
Encoding settings : cabac=1 / ref=5 / deblock=1:-1:-1 / analyse=0x3:0x113 / me=umh / subme=8 / psy=1 / psy_rd=1.00:0.15 / mixed_ref=1 / me_range=16 / chroma_me=1 / trellis=1 / 8x8dct=1 / cqm=0 / deadzone=21,11 / fast_pskip=1 / chroma_qp_offset=-3 / threads=18 / lookahead_threads=2 / sliced_threads=0 / nr=0 / decimate=1 / interlaced=0 / bluray_compat=0 / constrained_intra=0 / bframes=3 / b_pyramid=2 / b_adapt=2 / b_bias=0 / direct=3 / weightb=1 / open_gop=0 / weightp=2 / keyint=250 / keyint_min=24 / scenecut=40 / intra_refresh=0 / rc_lookahead=50 / rc=2pass / mbtree=1 / bitrate=270 / ratetol=1.0 / qcomp=0.60 / qpmin=0 / qpmax=69 / qpstep=4 / cplxblur=20.0 / qblur=0.5 / ip_ratio=1.40 / aq=1:1.00
Language : English
Menus : 3

Audio

ID : 2
Format : AAC
Format/Info : Advanced Audio Codec
Format profile : LC
Codec ID : mp4a-40-2
Duration : 2 h 23 min
Bit rate mode : Constant
Bit rate : 48.0 kb/s
Channel(s) : 2 channels
Channel(s)_Original : 1 channel
Channel positions : Front: C
Sampling rate : 44.1 kHz
Frame rate : 43.066 FPS (1024 SPF)
Compression mode : Lossy
Stream size : 49.1 MiB (15%)
Title : AAC 5.1 Channels
Language : Hindi
Default : Yes
Alternate group : 1
Menus : 3

Menu #1

ID : 3
Codec ID : text
Duration : 2 h 23 min
Language : English
Bit rate mode : CBR
Menu For : 1,2
00:00:00.000 : Chapter 01
00:04:00.000 : Chapter 02
00:09:28.500 : Chapter 03
00:10:43.500 : Chapter 04
00:17:07.000 : Chapter 05
00:19:37.000 : Chapter 06
00:25:33.000 : Chapter 07
00:29:16.500 : Chapter 08
00:37:35.500 : Chapter 09
00:43:43.500 : Chapter 10
00:47:50.000 : Chapter 11
00:50:37.000 : Chapter 12
01:01:08.500 : Chapter 13
01:16:28.401 : Chapter 14
01:20:03.401 : Chapter 15
01:21:44.901 : Chapter 16
01:25:21.401 : Chapter 17
01:32:36.401 : Chapter 18
01:35:53.401 : Chapter 19
01:44:34.401 : Chapter 20
01:53:06.401 : Chapter 21
01:56:53.901 : Chapter 22
02:00:26.901 : Chapter 23
02:20:17.401 : Chapter 24
02:22:55.401 : Chapter 25

Menu #2

00:00:00.000 : Chapter 01
00:04:00.000 : Chapter 02
00:09:28.500 : Chapter 03
00:10:43.500 : Chapter 04
00:17:07.000 : Chapter 05
00:19:37.000 : Chapter 06
00:25:33.000 : Chapter 07
00:29:16.500 : Chapter 08
00:37:35.500 : Chapter 09
00:43:43.500 : Chapter 10
00:47:50.000 : Chapter 11
00:50:37.000 : Chapter 12
01:01:08.500 : Chapter 13
01:16:28.401 : Chapter 14
01:20:03.401 : Chapter 15
01:21:44.901 : Chapter 16
01:25:21.401 : Chapter 17
01:32:36.401 : Chapter 18
01:35:53.401 : Chapter 19
01:44:34.401 : Chapter 20
01:53:06.401 : Chapter 21
01:56:53.901 : Chapter 22
02:00:26.901 : Chapter 23
02:20:17.401 : Chapter 24
02:22:55.401 : Chapter 25

Download Welcome Back ()

Welcome Back (in Bollywood Movies)
File: Welcome_Back_DVDRip_high.mp4
File Size: 333 MB