Welcome to FzMovies

The Best destination for Mobile/Tablet Movies


Join our Telegram Channel to get latest updates Join @FzGroup

Follow us on Twitter to get latest updates Follow @FzGroup

We have exciting news:
1. The error on search result page which showed every movie as BluRayExt has been fixed. The quality of movie we have is shown correctly now.

2. We have divided movie list into multiple pages, So the loading time will decrease considerably.

— FzMovies (@FzGroup) September 22, 2018
Loading...


MobileTVshows - TV shows / cartoons for mobiles in avi and mp4....http://www.mobiletvshows.net


Mediainfo Blood Money 2017

Blood Money 2017 (in Hollywood Movies)
File: Blood_Money_2017_BluRay_high.mp4
File Size: 198 MB


General

Complete name : Blood_Money_2017_BluRay_high.mp4
Format : MPEG-4
Format profile : Base Media
Codec ID : isom (isom/iso2/avc1/mp41)
File size : 198 MiB
Duration : 1 h 25 min
Overall bit rate : 324 kb/s
Writing application : Lavf57.66.102

Video

ID : 1
Format : AVC
Format/Info : Advanced Video Codec
Format profile : [email protected]
Format settings : CABAC / 5 Ref Frames
Format settings, CABAC : Yes
Format settings, ReFrames : 5 frames
Codec ID : avc1
Codec ID/Info : Advanced Video Coding
Duration : 1 h 25 min
Bit rate : 270 kb/s
Width : 640 pixels
Height : 268 pixels
Display aspect ratio : 2.40:1
Frame rate mode : Constant
Frame rate : 23.976 FPS
Color space : YUV
Chroma subsampling : 4:2:0
Bit depth : 8 bits
Scan type : Progressive
Bits/(Pixel*Frame) : 0.066
Stream size : 165 MiB (83%)
Writing library : x264 core 148 r2 7599210
Encoding settings : cabac=1 / ref=5 / deblock=1:-1:-1 / analyse=0x3:0x113 / me=umh / subme=8 / psy=1 / psy_rd=1.00:0.15 / mixed_ref=1 / me_range=16 / chroma_me=1 / trellis=1 / 8x8dct=1 / cqm=0 / deadzone=21,11 / fast_pskip=1 / chroma_qp_offset=-3 / threads=8 / lookahead_threads=1 / sliced_threads=0 / nr=0 / decimate=1 / interlaced=0 / bluray_compat=0 / constrained_intra=0 / bframes=3 / b_pyramid=2 / b_adapt=2 / b_bias=0 / direct=3 / weightb=1 / open_gop=0 / weightp=2 / keyint=250 / keyint_min=23 / scenecut=40 / intra_refresh=0 / rc_lookahead=50 / rc=2pass / mbtree=1 / bitrate=270 / ratetol=1.0 / qcomp=0.60 / qpmin=0 / qpmax=69 / qpstep=4 / cplxblur=20.0 / qblur=0.5 / ip_ratio=1.40 / aq=1:1.00
Language : English
Menus : 3

Audio

ID : 2
Format : AAC
Format/Info : Advanced Audio Codec
Format profile : HE-AAC / LC
Format settings : NBC
Codec ID : mp4a-40-5
Duration : 1 h 25 min
Bit rate mode : Constant
Bit rate : 48.0 kb/s
Channel(s) : 2 channels
Channel(s)_Original : 1 channel
Channel positions : Front: C
Sampling rate : 44.1 kHz / 22.05 kHz
Frame rate : 21.533 FPS (1024 SPF)
Compression mode : Lossy
Stream size : 29.3 MiB (15%)
Language : English
Default : Yes
Alternate group : 1
Menus : 3

Menu #1

ID : 3
Codec ID : text
Duration : 1 h 25 min
Language : English
Bit rate mode : CBR
Menu For : 1,2
00:00:00.000 : 00:00:00.000
00:06:10.287 : 00:06:10.287
00:11:18.678 : 00:11:18.678
00:17:10.238 : 00:17:10.238
00:22:21.131 : 00:22:21.131
00:25:44.251 : 00:25:44.251
00:31:14.039 : 00:31:14.039
00:37:56.524 : 00:37:56.524
00:44:58.487 : 00:44:58.487
00:48:24.735 : 00:48:24.735
00:51:44.977 : 00:51:44.977
00:57:07.257 : 00:57:07.257
01:02:19.736 : 01:02:19.736
01:09:00.678 : 01:09:00.678
01:13:53.012 : 01:13:53.012
01:19:54.623 : 01:19:54.623

Menu #2

00:00:00.000 : 00:00:00.000
00:06:10.287 : 00:06:10.287
00:11:18.678 : 00:11:18.678
00:17:10.238 : 00:17:10.238
00:22:21.131 : 00:22:21.131
00:25:44.251 : 00:25:44.251
00:31:14.039 : 00:31:14.039
00:37:56.524 : 00:37:56.524
00:44:58.487 : 00:44:58.487
00:48:24.735 : 00:48:24.735
00:51:44.977 : 00:51:44.977
00:57:07.257 : 00:57:07.257
01:02:19.736 : 01:02:19.736
01:09:00.678 : 01:09:00.678
01:13:53.012 : 01:13:53.012
01:19:54.623 : 01:19:54.623

Download Blood Money 2017 ()

Blood Money 2017 (in Hollywood Movies)
File: Blood_Money_2017_BluRay_high.mp4
File Size: 198 MB
Loading...