Welcome to FzMovies

The Best destination for Mobile/Tablet Movies


Loading...
Join our Telegram Channel to get latest updates Join @FzGroup

Follow us on Twitter to get latest updates Follow @FzGroup


MobileTVshows - TV shows / cartoons for mobiles in avi and mp4....http://www.mobiletvshows.net


Loading...


Mediainfo The Bounce Back

The Bounce Back (in Hollywood Movies)
File: The_Bounce_Back_DVDRip_high.mp4
File Size: 240 MB


General

Complete name : The_Bounce_Back_DVDRip_high.mp4
Format : MPEG-4
Format profile : Base Media
Codec ID : isom (isom/iso2/avc1/mp41)
File size : 240 MiB
Duration : 1 h 43 min
Overall bit rate : 324 kb/s
Writing application : Lavf57.66.102

Video

ID : 1
Format : AVC
Format/Info : Advanced Video Codec
Format profile : [email protected]
Format settings : CABAC / 5 Ref Frames
Format settings, CABAC : Yes
Format settings, ReFrames : 5 frames
Codec ID : avc1
Codec ID/Info : Advanced Video Coding
Duration : 1 h 43 min
Bit rate : 270 kb/s
Width : 640 pixels
Height : 360 pixels
Display aspect ratio : 16:9
Original display aspect ratio : 16:9
Frame rate mode : Constant
Frame rate : 23.976 (24000/1001) FPS
Color space : YUV
Chroma subsampling : 4:2:0
Bit depth : 8 bits
Scan type : Progressive
Bits/(Pixel*Frame) : 0.049
Stream size : 200 MiB (83%)
Writing library : x264 core 148 r2 7599210
Encoding settings : cabac=1 / ref=5 / deblock=1:-1:-1 / analyse=0x3:0x113 / me=umh / subme=8 / psy=1 / psy_rd=1.00:0.15 / mixed_ref=1 / me_range=16 / chroma_me=1 / trellis=1 / 8x8dct=1 / cqm=0 / deadzone=21,11 / fast_pskip=1 / chroma_qp_offset=-3 / threads=11 / lookahead_threads=1 / sliced_threads=0 / nr=0 / decimate=1 / interlaced=0 / bluray_compat=0 / constrained_intra=0 / bframes=3 / b_pyramid=2 / b_adapt=2 / b_bias=0 / direct=3 / weightb=1 / open_gop=0 / weightp=2 / keyint=250 / keyint_min=23 / scenecut=40 / intra_refresh=0 / rc_lookahead=50 / rc=2pass / mbtree=1 / bitrate=270 / ratetol=1.0 / qcomp=0.60 / qpmin=0 / qpmax=69 / qpstep=4 / cplxblur=20.0 / qblur=0.5 / ip_ratio=1.40 / aq=1:1.00
Menus : 3

Audio

ID : 2
Format : AAC
Format/Info : Advanced Audio Codec
Format profile : HE-AAC / LC
Format settings : NBC
Codec ID : mp4a-40-5
Duration : 1 h 43 min
Bit rate mode : Constant
Bit rate : 48.0 kb/s
Channel(s) : 2 channels
Channel(s)_Original : 1 channel
Channel positions : Front: C
Sampling rate : 44.1 kHz / 22.05 kHz
Frame rate : 21.533 FPS (1024 SPF)
Compression mode : Lossy
Stream size : 35.7 MiB (15%)
Language : English
Default : Yes
Alternate group : 1
Menus : 3

Menu #1

ID : 3
Codec ID : text
Duration : 1 h 43 min
Language : English
Menu For : 1,2
00:00:00.000 : Chapter 1
00:03:12.333 : Chapter 2
00:05:25.667 : Chapter 3
00:08:09.667 : Chapter 4
00:11:42.000 : Chapter 5
00:14:31.167 : Chapter 6
00:17:22.167 : Chapter 7
00:22:58.833 : Chapter 8
00:25:49.000 : Chapter 9
00:28:34.333 : Chapter 10
00:33:44.000 : Chapter 11
00:40:02.533 : Chapter 12
00:43:58.333 : Chapter 13
00:46:35.500 : Chapter 14
00:49:49.000 : Chapter 15
00:55:59.000 : Chapter 16
01:01:14.700 : Chapter 17
01:03:04.500 : Chapter 18
01:06:05.333 : Chapter 19
01:07:43.167 : Chapter 20
01:13:03.667 : Chapter 21
01:14:52.833 : Chapter 22
01:17:19.700 : Chapter 23
01:20:51.833 : Chapter 24
01:25:08.000 : Chapter 25
01:33:03.000 : Chapter 26
01:36:32.333 : Chapter 27
01:38:11.000 : Chapter 28
Bit rate mode : VBR

Menu #2

00:00:00.000 : Chapter 1
00:03:12.333 : Chapter 2
00:05:25.667 : Chapter 3
00:08:09.667 : Chapter 4
00:11:42.000 : Chapter 5
00:14:31.167 : Chapter 6
00:17:22.167 : Chapter 7
00:22:58.833 : Chapter 8
00:25:49.000 : Chapter 9
00:28:34.333 : Chapter 10
00:33:44.000 : Chapter 11
00:40:02.533 : Chapter 12
00:43:58.333 : Chapter 13
00:46:35.500 : Chapter 14
00:49:49.000 : Chapter 15
00:55:59.000 : Chapter 16
01:01:14.700 : Chapter 17
01:03:04.500 : Chapter 18
01:06:05.333 : Chapter 19
01:07:43.167 : Chapter 20
01:13:03.667 : Chapter 21
01:14:52.833 : Chapter 22
01:17:19.700 : Chapter 23
01:20:51.833 : Chapter 24
01:25:08.000 : Chapter 25
01:33:03.000 : Chapter 26
01:36:32.333 : Chapter 27
01:38:11.000 : Chapter 28

Download The Bounce Back ()

The Bounce Back (in Hollywood Movies)
File: The_Bounce_Back_DVDRip_high.mp4
File Size: 240 MB
Loading...