Welcome to FzMovies

The Best destination for Mobile/Tablet Movies



Like us on Facebook get latest updates

MobileTVshows - TV shows / cartoons for mobiles in avi and mp4....http://www.mobiletvshows.net




Mediainfo Sweet Charity 1969

Sweet Charity 1969 (in Hollywood Movies)
File: Sweet_Charity_1969_BluRay_high.mp4
File Size: 349 MB


General

Complete name : Sweet_Charity_1969_(1969)_BluRay_high_(fzmovies.net).mp4
Format : MPEG-4
Format profile : Base Media
Codec ID : isom (isom/iso2/avc1/mp41)
File size : 349 MiB
Duration : 2 h 31 min
Overall bit rate : 323 kb/s
Movie name : Sweet.Charity.1969.720p.BluRay.x264-x0r
Writing application : Lavf57.66.102

Video

ID : 1
Format : AVC
Format/Info : Advanced Video Codec
Format profile : [email protected]
Format settings : CABAC / 5 Ref Frames
Format settings, CABAC : Yes
Format settings, RefFrames : 5 frames
Codec ID : avc1
Codec ID/Info : Advanced Video Coding
Duration : 2 h 31 min
Bit rate : 270 kb/s
Width : 640 pixels
Height : 360 pixels
Display aspect ratio : 16:9
Frame rate mode : Constant
Frame rate : 23.976 (24000/1001) FPS
Color space : YUV
Chroma subsampling : 4:2:0
Bit depth : 8 bits
Scan type : Progressive
Bits/(Pixel*Frame) : 0.049
Stream size : 292 MiB (84%)
Writing library : x264 core 148 r2 7599210
Encoding settings : cabac=1 / ref=5 / deblock=1:-1:-1 / analyse=0x3:0x113 / me=umh / subme=8 / psy=1 / psy_rd=1.00:0.15 / mixed_ref=1 / me_range=16 / chroma_me=1 / trellis=1 / 8x8dct=1 / cqm=0 / deadzone=21,11 / fast_pskip=1 / chroma_qp_offset=-3 / threads=11 / lookahead_threads=1 / sliced_threads=0 / nr=0 / decimate=1 / interlaced=0 / bluray_compat=0 / constrained_intra=0 / bframes=3 / b_pyramid=2 / b_adapt=2 / b_bias=0 / direct=3 / weightb=1 / open_gop=0 / weightp=2 / keyint=250 / keyint_min=23 / scenecut=40 / intra_refresh=0 / rc_lookahead=50 / rc=2pass / mbtree=1 / bitrate=270 / ratetol=1.0 / qcomp=0.60 / qpmin=0 / qpmax=69 / qpstep=4 / cplxblur=20.0 / qblur=0.5 / ip_ratio=1.40 / aq=1:1.00
Language : English
Menus : 3

Audio

ID : 2
Format : AAC
Format/Info : Advanced Audio Codec
Format profile : HE-AAC / LC
Format settings : NBC
Codec ID : mp4a-40-5
Duration : 2 h 31 min
Duration_LastFrame : -3 ms
Bit rate mode : Constant
Bit rate : 48.0 kb/s
Channel(s) : 2 channels
Channel(s)_Original : 1 channel
Channel positions : Front: C
Sampling rate : 44.1 kHz / 22.05 kHz
Frame rate : 21.533 FPS (1024 SPF)
Compression mode : Lossy
Stream size : 51.9 MiB (15%)
Title : Stereo
Language : English
Default : Yes
Alternate group : 1
Menus : 3

Menu #1

ID : 3
Codec ID : text
Duration : 2 h 31 min
Language : English
Menu For : 1,2
00:00:00.000 : Chapter 1
00:07:13.892 : Chapter 2
00:19:57.446 : Chapter 3
00:32:10.720 : Chapter 4
00:44:13.359 : Chapter 5
00:57:26.151 : Chapter 6
01:08:28.646 : Chapter 7
01:23:19.536 : Chapter 8
01:33:40.406 : Chapter 9
01:47:11.800 : Chapter 10
01:57:37.342 : Chapter 11
02:14:12.670 : Chapter 12
02:31:00.301 : Chapter 13
Bit rate mode : VBR

Menu #2

00:00:00.000 : Chapter 1
00:07:13.891 : Chapter 2
00:19:57.446 : Chapter 3
00:32:10.720 : Chapter 4
00:44:13.359 : Chapter 5
00:57:26.151 : Chapter 6
01:08:28.646 : Chapter 7
01:23:19.536 : Chapter 8
01:33:40.406 : Chapter 9
01:47:11.800 : Chapter 10
01:57:37.341 : Chapter 11
02:14:12.669 : Chapter 12
02:31:00.301 : Chapter 13

Download Sweet Charity 1969 ()

Sweet Charity 1969 (in Hollywood Movies)
File: Sweet_Charity_1969_BluRay_high.mp4
File Size: 349 MB