Welcome to FzMovies

The Best destination for Mobile/Tablet Movies


Loading...
Join our Telegram Channel to get latest updates Join @FzGroup

Follow us on Twitter to get latest updates Follow @FzGroup


MobileTVshows - TV shows / cartoons for mobiles in avi and mp4....http://www.mobiletvshows.net


Loading...


Mediainfo Now You See Me

Now You See Me (in Hollywood Movies)
File: Now_You_See_Me_BluRay_high.mp4
File Size: 288 MB


General

Complete name : Now_You_See_Me_BluRay_high.mp4
Format : MPEG-4
Format profile : Base Media
Codec ID : isom (isom/iso2/avc1/mp41)
File size : 288 MiB
Duration : 2 h 4 min
Overall bit rate : 323 kb/s
Movie name : Now.You.See.Me.2013.720p.BluRay.x264-x0r
Writing application : Lavf57.66.102

Video

ID : 1
Format : AVC
Format/Info : Advanced Video Codec
Format profile : [email protected]
Format settings : CABAC / 5 Ref Frames
Format settings, CABAC : Yes
Format settings, ReFrames : 5 frames
Codec ID : avc1
Codec ID/Info : Advanced Video Coding
Duration : 2 h 4 min
Bit rate : 270 kb/s
Width : 640 pixels
Height : 360 pixels
Display aspect ratio : 16:9
Frame rate mode : Constant
Frame rate : 23.976 FPS
Color space : YUV
Chroma subsampling : 4:2:0
Bit depth : 8 bits
Scan type : Progressive
Bits/(Pixel*Frame) : 0.049
Stream size : 241 MiB (84%)
Writing library : x264 core 148 r2 7599210
Encoding settings : cabac=1 / ref=5 / deblock=1:-1:-1 / analyse=0x3:0x113 / me=umh / subme=8 / psy=1 / psy_rd=1.00:0.15 / mixed_ref=1 / me_range=16 / chroma_me=1 / trellis=1 / 8x8dct=1 / cqm=0 / deadzone=21,11 / fast_pskip=1 / chroma_qp_offset=-3 / threads=11 / lookahead_threads=1 / sliced_threads=0 / nr=0 / decimate=1 / interlaced=0 / bluray_compat=0 / constrained_intra=0 / bframes=3 / b_pyramid=2 / b_adapt=2 / b_bias=0 / direct=3 / weightb=1 / open_gop=0 / weightp=2 / keyint=250 / keyint_min=23 / scenecut=40 / intra_refresh=0 / rc_lookahead=50 / rc=2pass / mbtree=1 / bitrate=270 / ratetol=1.0 / qcomp=0.60 / qpmin=0 / qpmax=69 / qpstep=4 / cplxblur=20.0 / qblur=0.5 / ip_ratio=1.40 / aq=1:1.00
Language : English
Menus : 3

Audio

ID : 2
Format : AAC
Format/Info : Advanced Audio Codec
Format profile : HE-AAC / LC
Format settings : NBC
Codec ID : mp4a-40-5
Duration : 2 h 4 min
Duration_LastFrame : -39 ms
Bit rate mode : Constant
Bit rate : 48.0 kb/s
Channel(s) : 2 channels
Channel(s)_Original : 1 channel
Channel positions : Front: C
Sampling rate : 44.1 kHz / 22.05 kHz
Frame rate : 21.533 FPS (1024 SPF)
Compression mode : Lossy
Stream size : 42.8 MiB (15%)
Title : Surround
Language : English
Default : Yes
Alternate group : 1
Menus : 3

Menu #1

ID : 3
Codec ID : text
Duration : 2 h 4 min
Language : English
Menu For : 1,2
00:00:00.000 : Chapter 1
00:04:59.900 : Chapter 2
00:09:59.324 : Chapter 3
00:14:59.874 : Chapter 4
00:19:59.882 : Chapter 5
00:24:59.640 : Chapter 6
00:29:59.398 : Chapter 7
00:34:59.031 : Chapter 8
00:39:59.623 : Chapter 9
00:44:59.339 : Chapter 10
00:49:59.430 : Chapter 11
00:54:59.146 : Chapter 12
00:59:59.780 : Chapter 13
01:04:59.246 : Chapter 14
01:10:00.004 : Chapter 15
01:14:59.762 : Chapter 16
01:19:59.353 : Chapter 17
01:24:59.069 : Chapter 18
01:29:59.536 : Chapter 19
01:34:59.794 : Chapter 20
01:39:58.968 : Chapter 21
01:44:59.393 : Chapter 22
01:49:59.360 : Chapter 23
01:54:59.868 : Chapter 24
01:59:59.376 : Chapter 25
Bit rate mode : VBR

Menu #2

00:00:00.000 : Chapter 1
00:04:59.899 : Chapter 2
00:09:59.324 : Chapter 3
00:14:59.874 : Chapter 4
00:19:59.882 : Chapter 5
00:24:59.640 : Chapter 6
00:29:59.397 : Chapter 7
00:34:59.030 : Chapter 8
00:39:59.622 : Chapter 9
00:44:59.338 : Chapter 10
00:49:59.430 : Chapter 11
00:54:59.146 : Chapter 12
00:59:59.779 : Chapter 13
01:04:59.245 : Chapter 14
01:10:00.004 : Chapter 15
01:14:59.762 : Chapter 16
01:19:59.353 : Chapter 17
01:24:59.069 : Chapter 18
01:29:59.536 : Chapter 19
01:34:59.794 : Chapter 20
01:39:58.968 : Chapter 21
01:44:59.393 : Chapter 22
01:49:59.359 : Chapter 23
01:54:59.868 : Chapter 24
01:59:59.375 : Chapter 25

Download Now You See Me ()

Now You See Me (in Hollywood Movies)
File: Now_You_See_Me_BluRay_high.mp4
File Size: 288 MB
Loading...