Welcome to FzMovies

The Best destination for Mobile/Tablet Movies



Like us on Facebook get latest updates

MobileTVshows - TV shows / cartoons for mobiles in avi and mp4....http://www.mobiletvshows.net




Mediainfo Maidan E Jung 1995

Maidan E Jung 1995 (in Bollywood Movies)
File: Maidan_E_Jung_1995_DVDRip_high.mp4
File Size: 383 MB


General

Complete name : Maidan_E_Jung_1995_(1995)_DVDRip_high_(fzmovies.net).mp4
Format : MPEG-4
Format profile : Base Media
Codec ID : isom (isom/iso2/avc1/mp41)
File size : 383 MiB
Duration : 2 h 45 min
Overall bit rate : 325 kb/s
Writing application : Lavf57.20.100

Video

ID : 1
Format : AVC
Format/Info : Advanced Video Codec
Format profile : [email protected]
Format settings : CABAC / 5 Ref Frames
Format settings, CABAC : Yes
Format settings, RefFrames : 5 frames
Codec ID : avc1
Codec ID/Info : Advanced Video Coding
Duration : 2 h 45 min
Bit rate : 270 kb/s
Width : 640 pixels
Height : 304 pixels
Display aspect ratio : 1.905
Frame rate mode : Constant
Frame rate : 29.970 (30000/1001) FPS
Color space : YUV
Chroma subsampling : 4:2:0
Bit depth : 8 bits
Scan type : Progressive
Bits/(Pixel*Frame) : 0.046
Stream size : 319 MiB (83%)
Writing library : x264 core 148 r2 7599210
Encoding settings : cabac=1 / ref=5 / deblock=1:-1:-1 / analyse=0x3:0x113 / me=umh / subme=8 / psy=1 / psy_rd=1.00:0.15 / mixed_ref=1 / me_range=16 / chroma_me=1 / trellis=1 / 8x8dct=1 / cqm=0 / deadzone=21,11 / fast_pskip=1 / chroma_qp_offset=-3 / threads=9 / lookahead_threads=1 / sliced_threads=0 / nr=0 / decimate=1 / interlaced=0 / bluray_compat=0 / constrained_intra=0 / bframes=3 / b_pyramid=2 / b_adapt=2 / b_bias=0 / direct=3 / weightb=1 / open_gop=0 / weightp=2 / keyint=250 / keyint_min=25 / scenecut=40 / intra_refresh=0 / rc_lookahead=50 / rc=2pass / mbtree=1 / bitrate=270 / ratetol=1.0 / qcomp=0.60 / qpmin=0 / qpmax=69 / qpstep=4 / cplxblur=20.0 / qblur=0.5 / ip_ratio=1.40 / aq=1:1.00
Language : English
Menus : 3

Audio

ID : 2
Format : AAC
Format/Info : Advanced Audio Codec
Format profile : HE-AAC / LC
Format settings : NBC
Codec ID : mp4a-40-5
Duration : 2 h 45 min
Duration_LastFrame : -43 ms
Bit rate mode : Constant
Bit rate : 48.0 kb/s
Channel(s) : 2 channels
Channel(s)_Original : 1 channel
Channel positions : Front: C
Sampling rate : 44.1 kHz / 22.05 kHz
Frame rate : 21.533 FPS (1024 SPF)
Compression mode : Lossy
Stream size : 56.7 MiB (15%)
Language : Hindi
Default : Yes
Alternate group : 1
Menus : 3

Menu #1

ID : 3
Codec ID : text
Duration : 2 h 45 min
Language : English
Menu For : 1,2
00:00:00.000 : Chapter 1
00:02:18.805 : Chapter 2
00:08:57.604 : Chapter 3
00:13:53.891 : Chapter 4
00:21:26.619 : Chapter 5
00:26:15.441 : Chapter 6
00:34:05.769 : Chapter 7
00:41:27.810 : Chapter 8
00:45:26.482 : Chapter 9
00:49:09.079 : Chapter 10
00:54:10.714 : Chapter 11
01:02:38.955 : Chapter 12
01:13:47.882 : Chapter 13
01:28:24.516 : Chapter 14
01:30:43.838 : Chapter 15
01:34:02.837 : Chapter 16
01:35:02.664 : Chapter 17
01:41:17.980 : Chapter 18
01:43:19.185 : Chapter 19
01:58:31.021 : Chapter 20
02:05:37.030 : Chapter 21
02:07:59.572 : Chapter 22
02:11:10.730 : Chapter 23
02:19:44.818 : Chapter 24
02:28:39.736 : Chapter 25
Bit rate mode : VBR

Menu #2

00:00:00.000 : Chapter 1
00:02:18.805 : Chapter 2
00:08:57.603 : Chapter 3
00:13:53.891 : Chapter 4
00:21:26.618 : Chapter 5
00:26:15.440 : Chapter 6
00:34:05.768 : Chapter 7
00:41:27.810 : Chapter 8
00:45:26.482 : Chapter 9
00:49:09.079 : Chapter 10
00:54:10.714 : Chapter 11
01:02:38.955 : Chapter 12
01:13:47.881 : Chapter 13
01:28:24.515 : Chapter 14
01:30:43.838 : Chapter 15
01:34:02.837 : Chapter 16
01:35:02.663 : Chapter 17
01:41:17.980 : Chapter 18
01:43:19.184 : Chapter 19
01:58:31.020 : Chapter 20
02:05:37.029 : Chapter 21
02:07:59.571 : Chapter 22
02:11:10.729 : Chapter 23
02:19:44.818 : Chapter 24
02:28:39.735 : Chapter 25

Download Maidan E Jung 1995 ()

Maidan E Jung 1995 (in Bollywood Movies)
File: Maidan_E_Jung_1995_DVDRip_high.mp4
File Size: 383 MB